<?xml version="1.0" standalone="no"?>
<!DOCTYPE svg PUBLIC "-//W3C//DTD SVG 1.1//EN" "http://www.w3.org/Graphics/SVG/1.1/DTD/svg11.dtd" >
<svg>
<metadata>
Created by FontForge 20110222 at Mon Feb 23 09:35:13 2015
 By www-data
(c) Ghandhara (c) Credits: Abdul Majeed Khan, Arif Karim, Shakir-ul-Qadree, Jawad
</metadata>
<defs>
<font id="AlQalamQuranMajeedWeb" horiz-adv-x="1004" >
  <font-face 
    font-family="Al Qalam Quran Majeed Web"
    font-weight="400"
    font-stretch="normal"
    units-per-em="2048"
    panose-1="2 1 0 0 0 0 0 0 0 0"
    ascent="1638"
    descent="-410"
    x-height="940"
    cap-height="1403"
    bbox="-620.13 -587 2206 1960"
    underline-thickness="100"
    underline-position="-800"
    unicode-range="U+0020-E834"
  />
    <missing-glyph />
    <glyph glyph-name="space" unicode=" " horiz-adv-x="202" 
 />
    <glyph glyph-name="brokenbar" unicode="&#xa6;" horiz-adv-x="1044" 
d="M567 678h-88v756h88v-756zM567 -348h-88v756h88v-756z" />
    <glyph glyph-name="section" unicode="&#xa7;" horiz-adv-x="961" 
d="M852 166q0 -220 -157 -359q-148 -131 -310 -131q-72 0 -151 30q-101 38 -101 99q0 26 20 46t46 20q32 0 84 -45t80 -70q28 -20 92 -20q103 0 160 81q26 37 26 79q0 87 -100 226l-148 206q-125 174 -190 298q-97 185 -97 334q0 203 127 357q136 164 334 164q140 0 224 -70
q38 -32 38 -63q0 -66 -73 -66q-34 0 -99 63q-76 74 -151 74q-105 0 -161 -83q-26 -39 -26 -83q0 -72 108 -229q51 -70 151 -209q135 -187 191 -304q83 -173 83 -345zM774 145q0 161 -67 305q-41 88 -166 269l-96 139q-176 254 -195 379q-68 -111 -68 -256q0 -116 55 -241
q46 -104 121 -218q82 -117 283 -427q50 -81 66 -177q67 100 67 227z" />
    <glyph glyph-name="nonbreakingspace" unicode="&#xa0;" horiz-adv-x="0" 
 />
    <glyph glyph-name="exclamdown" unicode="&#xa1;" horiz-adv-x="569" 
d="M379 986q0 -38 -26 -65t-64 -27t-63.5 27t-24.5 65q1 36 26.5 61t61.5 25t63 -25t27 -61zM375 136q0 -154 -88 -154q-90 0 -90 156q0 86 33 277.5t34 291.5l1 117h41l1 -115q1 -98 34.5 -289.5t33.5 -283.5z" />
    <glyph glyph-name="cent" unicode="&#xa2;" horiz-adv-x="874" 
d="M801 317q-107 -169 -270 -204q-42 -9 -79 -9q-50 0 -104 13l-135 -332h-66l144 352q-197 113 -197 363q0 132 69.5 242.5t187.5 170.5q99 50 214 50q26 0 53 -3l107 261h66l-111 -275q115 -34 115 -100q0 -62 -60 -62q-49 0 -102 50l-244 -613q76 -33 133 -33
q136 0 250 148zM586 874q-53 35 -90 35q-149 0 -228 -185q-37 -86 -37 -179q0 -164 107 -283z" />
    <glyph glyph-name="dieresis" unicode="&#xa8;" horiz-adv-x="682" 
d="M631 1274q0 -38 -26 -64t-64 -26t-64 26t-26 64t26 64t64 26t64 -26t26 -64zM233 1274q0 -38 -26 -64t-64 -26t-64 26t-26 64t26 64t64 26t64 -26t26 -64z" />
    <glyph glyph-name="copyright" unicode="&#xa9;" horiz-adv-x="1556" 
d="M1487 807q0 -191 -94 -353.5t-258.5 -259t-356.5 -96.5q-190 0 -353 94t-259 258.5t-96 356.5q0 190 94 353.5t258.5 259t355.5 95.5t354 -94t259 -258.5t96 -355.5zM1425 807q0 174 -85 322.5t-235 236.5t-327 88q-174 0 -323 -85.5t-236.5 -236t-87.5 -325.5
q0 -270 188.5 -458.5t458.5 -188.5q175 0 324 85t236 235.5t87 326.5zM1165 561q-141 -203 -385 -203q-271 0 -402 219q-61 102 -61 224q0 129 65.5 235.5t180 167t252.5 60.5q79 0 171 -32q38 -13 54 -13q34 0 47 45h39l21 -281h-39q-70 238 -303 238q-200 0 -282 -184
q-40 -90 -40 -206q0 -182 73 -289q85 -124 259 -124q197 0 311 162z" />
    <glyph glyph-name="ordfeminine" unicode="&#xaa;" horiz-adv-x="532" 
d="M530 987q-87 -72 -143 -72t-70 64q-85 -64 -145 -64q-129 0 -129 107q0 54 53 85q31 18 107.5 40t109.5 41v112q0 35 -24.5 60.5t-59.5 25.5q-31 0 -54 -23q-13 -13 -13 -29q0 -12 8 -25l-111 -50q-8 11 -8 24q0 21 17 45q29 41 84.5 73.5t103.5 32.5q94 0 145 -62
q25 -31 25 -67v-263q0 -55 23 -55q36 0 69 35zM313 1018v129q-57 -19 -143 -64q-18 -16 -18 -47q0 -65 63 -65q21 0 98 47z" />
    <glyph glyph-name="sterling" unicode="&#xa3;" horiz-adv-x="1556" 
d="M1507 1335q0 -63 -65 -63q-33 0 -88 48q-27 25 -82 73q-22 18 -84 18q-127 0 -244 -215q-30 -54 -137 -316l-119 -289q-72 -168 -133 -282h352l-10 -49h-365q-69 -148 -174 -276l4 -5q103 56 224 56q142 0 325 -134q89 -65 119 -82q71 -40 137 -40q72 0 125 39
q60 43 60 112q0 31 -29 84.5t-29 65.5q0 76 72 76q45 0 70 -48q20 -38 20 -88q0 -187 -197 -294q-88 -48 -184 -48q-144 0 -319 147q-84 71 -125 96q-75 46 -148 46q-69 0 -166 -47q-40 -82 -94 -147q-75 -90 -139 -90q-20 0 -37.5 14t-17.5 33q0 63 92 136q73 58 149 87
q60 103 136 307h-302l11 49h311l160 414q254 658 566 743q55 15 114 15q138 0 209 -73q32 -33 32 -73z" />
    <glyph glyph-name="currency" unicode="&#xa4;" horiz-adv-x="1366" 
d="M1153 379l-61 -62l-125 125q-141 -102 -283 -102q-139 0 -283 100l-125 -123l-61 62l125 123q-100 138 -100 282q0 148 100 283l-125 123l61 63l125 -123q140 99 283 99q144 0 283 -101l125 125l61 -63l-125 -123q100 -134 100 -283q0 -142 -100 -280zM1040 784
q0 206 -179 310q-81 47 -177 47q-205 0 -308 -178q-48 -83 -48 -179q0 -201 178 -307q82 -49 178 -49q147 0 251.5 104.5t104.5 251.5z" />
    <glyph glyph-name="macron" unicode="&#xaf;" horiz-adv-x="682" 
d="M623 1216h-564v119h564v-119z" />
    <glyph glyph-name="degree" unicode="&#xb0;" horiz-adv-x="811" 
d="M713 1130q0 -176 -152 -265q-71 -42 -155 -42q-129 0 -218.5 89t-89.5 218q0 177 154 267q70 41 154 41q128 0 217.5 -90t89.5 -218zM629 1130q0 129 -111 194q-51 30 -112 30q-94 0 -159 -65t-65 -159t65 -158.5t159 -64.5q128 0 193 112q30 51 30 111z" />
    <glyph glyph-name="logicalnot" unicode="&#xac;" horiz-adv-x="1366" 
d="M1221 498h-93v487h-983v90h1076v-577z" />
    <glyph glyph-name="plusminus" unicode="&#xb1;" horiz-adv-x="946" 
d="M835 581h-321v-253h-84v253h-325v83h325v328h84v-328h321v-83zM835 175h-730v83h730v-83z" />
    <glyph glyph-name="registered" unicode="&#xae;" horiz-adv-x="1556" 
d="M1487 807q0 -191 -94 -353.5t-258.5 -259t-356.5 -96.5q-190 0 -353 94t-259 258.5t-96 356.5q0 190 94 353.5t258.5 259t355.5 95.5t354 -94t259 -258.5t96 -355.5zM1425 807q0 174 -85 322.5t-235 236.5t-327 88q-174 0 -323 -85.5t-236.5 -236t-87.5 -325.5
q0 -270 188.5 -458.5t458.5 -188.5q175 0 324 85t236 235.5t87 326.5zM1176 377h-185l-295 405h-73v-295q0 -77 116 -77v-33h-366v33q104 0 104 88v622q0 86 -92 86v37h385q184 0 262 -107q37 -51 37 -118q0 -166 -223 -221l209 -299q58 -83 121 -88v-33zM907 1008
q0 84 -58.5 137t-143.5 53q-34 0 -82 -14v-359h39q100 0 166 41q79 48 79 142z" />
    <glyph glyph-name="sfthyphen" unicode="&#xad;" horiz-adv-x="1366" 
d="M1221 739h-1076v90h1076v-90z" />
    <glyph glyph-name="yen" unicode="&#xa5;" horiz-adv-x="1024" 
d="M1194 1364q-168 -12 -256 -162l-80 -137h227v-68h-268l-190 -321h458v-68h-487v-289q0 -85 41 -119q37 -32 123 -32h26v-39h-563v39h39q86 0 123 30q41 34 41 117v293h-549v68h504l-207 321h-297v68h254l-70 108q-48 73 -71 101q-45 53 -93 72q-40 16 -116 18v39h545v-39
q-148 0 -144 -54q2 -29 35 -79l109 -166h420l88 151q31 53 31 85q0 63 -136 63v39h463v-39zM707 997h-336l176 -272z" />
    <glyph glyph-name="guillemotleft" unicode="&#xab;" horiz-adv-x="834" 
d="M778 10h-53l-340 400l340 393h47l-246 -393zM471 10h-49l-338 400l340 393h47l-246 -393z" />
    <glyph glyph-name="comma" unicode="," horiz-adv-x="569" 
d="M379 90q0 -166 -184 -325l-31 33q132 119 132 221v11l-1 11q-123 0 -123 101q0 40 28 66t68 26q54 0 85 -47q26 -40 26 -97z" />
    <glyph glyph-name="zero" unicode="0" 
d="M928 766q0 -388 -214 -578q-99 -88 -212 -88q-124 0 -228 104q-86 85 -138 218q-61 154 -61 344q0 390 216 581q99 87 211 87q207 0 328 -243q98 -197 98 -425zM774 766q0 260 -31 386q-60 243 -241 243q-196 0 -248 -294q-25 -141 -25 -335q0 -253 33 -383
q62 -244 240 -244q201 0 249 288q23 138 23 339z" />
    <glyph glyph-name="one" unicode="1" 
d="M782 129h-516v39h111q46 0 62 16.5t16 63.5v1022q-113 -99 -256 -168l-17 28q82 55 181 141q114 99 157 163h72v-1188q0 -46 15 -62t61 -16h114v-39z" />
    <glyph glyph-name="two" unicode="2" 
d="M920 416l-39 -287h-820v33q82 104 224 245l236 236q192 204 192 399q0 160 -133 239q-61 36 -138 36q-115 0 -205 -84q-82 -76 -116 -193h-33q19 173 129 281q113 113 285 113q223 0 328 -177q49 -83 49 -186q0 -178 -148 -328l-191 -161q-177 -149 -347 -326h538
q99 0 125 57q14 31 31 103h33z" />
    <glyph glyph-name="three" unicode="3" 
d="M897 580q0 -128 -75 -242q-71 -106 -189 -171q-121 -67 -254 -67q-174 0 -267 74q-42 34 -42 72q0 26 18.5 47.5t44.5 21.5q32 0 110 -57l110 -80q30 -22 96 -22q166 0 254 186q40 85 40 184q0 108 -56 191q-64 94 -167 94q-73 0 -143 -55l-19 28q96 81 133 116
q146 138 146 241q0 81 -58.5 134.5t-140.5 53.5q-86 0 -163 -62q-69 -55 -109 -139l-37 15q71 182 224 256q73 35 155 35q158 0 232 -113q34 -52 34 -115q0 -165 -211 -289l4 -4q15 2 30 2q172 0 257 -162q43 -82 43 -173z" />
    <glyph glyph-name="four" unicode="4" 
d="M938 502h-205v-402h-137v402h-524v47l604 885h57v-830h205v-102zM596 604l-4 635l-424 -635h428z" />
    <glyph glyph-name="five" unicode="5" 
d="M877 537q0 -256 -236 -379q-111 -58 -246 -58q-90 0 -176 25q-123 36 -123 104q0 64 68 64q53 0 130 -69q83 -75 148 -75q159 0 243 174q38 79 38 171q0 138 -84 231.5t-221 93.5q-120 0 -217 -76l-21 15l29 649h485q45 0 60 27h39l-23 -160h-518l-16 -369q92 51 221 51
q174 0 297 -122.5t123 -296.5z" />
    <glyph glyph-name="six" unicode="6" 
d="M920 514q0 -235 -200 -357q-93 -57 -200 -57q-144 0 -251 91q-101 85 -146 228q-31 97 -31 214q0 302 201 519q182 197 485 282l23 -31q-467 -189 -535 -631q155 119 291 119q208 0 314 -188q49 -87 49 -189zM766 496q0 135 -51 229q-64 117 -189 117q-116 0 -270 -123
q-10 -48 -10 -127q0 -174 53 -294q72 -163 225 -163q130 0 193 123q49 95 49 238z" />
    <glyph glyph-name="seven" unicode="7" 
d="M901 1360l-500 -1260h-112l495 1170h-563q-63 0 -86 -28q-18 -22 -26 -91h-33l14 252h811v-43z" />
    <glyph glyph-name="eight" unicode="8" 
d="M903 477q0 -220 -199 -327q-93 -50 -204 -50q-230 0 -345 168q-53 77 -53 168q0 216 297 336q-280 125 -280 330q0 189 189 287q87 45 186 45q142 0 248 -75q120 -84 120 -220q0 -194 -266 -299q307 -137 307 -363zM739 1141q0 152 -120 223q-56 33 -127 33
q-145 0 -218 -114q-34 -53 -34 -118q0 -117 125 -202q71 -48 202 -105q172 108 172 283zM772 420q0 119 -114 210q-67 53 -218 122q-209 -114 -209 -312q0 -126 71 -212q76 -91 200 -91q159 0 235 140q35 65 35 143z" />
    <glyph glyph-name="nine" unicode="9" 
d="M911 901q0 -301 -200 -517q-181 -196 -486 -284l-22 31q318 128 447 364q64 117 87 267q-151 -119 -291 -119q-207 0 -313 189q-49 87 -49 188q0 124 67 228t180 154q73 32 152 32q259 0 374 -256q54 -120 54 -277zM758 942q0 306 -144 411q-63 46 -135 46
q-151 0 -211 -167q-30 -83 -30 -192q0 -133 52 -229q65 -119 187 -119q130 0 271 125q10 45 10 125z" />
    <glyph glyph-name="question" unicode="?" horiz-adv-x="725" 
d="M637 1063q0 -225 -174 -306l-135 -63q-60 -28 -60 -73q0 -70 78 -148h-45q-100 112 -100 211q0 79 59 125q36 29 138 66q95 36 134 71q56 51 56 141q0 91 -61 139q-55 44 -148 44q-27 0 -79.5 -7.5t-78.5 -7.5q-117 0 -117 74q0 96 179 96q158 0 256 -101.5t98 -260.5z
M422 201q0 -97 -105 -97q-44 0 -74 27t-30 70q0 96 104 96q105 0 105 -96z" />
    <glyph glyph-name="internet" unicode="@" horiz-adv-x="1878" 
d="M1835 301q-52 -179 -184 -322q-127 -137 -303 -214q-179 -78 -379 -78q-380 0 -628 254q-245 251 -245 632q0 407 268 691q273 288 678 288q316 0 513 -184q202 -188 202 -502q0 -256 -139 -468q-156 -238 -412 -238q-153 0 -153 137q0 54 16 143l-4 4
q-214 -284 -389 -284q-85 0 -136 76q-46 67 -46 155q0 154 95 326q88 159 217 267t238 108q150 0 177 -138l30 111l158 20l-178 -608q-33 -113 -33 -162q0 -82 78 -82q188 0 314 243q106 204 106 409q0 279 -185 451q-181 167 -462 167q-382 0 -627 -298
q-232 -283 -232 -656q0 -224 93 -403q98 -190 285 -296q179 -102 407 -102q367 0 610 254q120 125 193 299h57zM1182 899q0 60 -33 101.5t-92 41.5q-98 0 -209 -142q-79 -101 -135 -230q-66 -151 -66 -248q0 -54 31 -95q34 -46 86 -46q164 0 299 234q119 206 119 384z" />
    <glyph glyph-name="A" unicode="A" horiz-adv-x="1386" 
d="M1376 129h-563v39h53q74 0 100 6q60 14 60 64q0 25 -22 84l-138 372h-424l-118 -321q-41 -112 -41 -129q0 -76 166 -76h32v-39h-473v39q125 4 162 67q24 42 59 136l373 1018l-18 45h178l428 -1137q38 -100 100 -119q32 -10 86 -10v-39zM831 784l-180 478l-174 -478h354z
" />
    <glyph glyph-name="B" unicode="B" horiz-adv-x="1300" 
d="M1192 518q0 -216 -189 -329q-100 -60 -253 -60h-750v39h47q157 0 186 66q15 34 15 102v850q0 98 -29 135q-34 43 -129 43h-72v39l115 6q61 3 143 6q181 6 308 6q299 0 411 -80q125 -89 125 -227q0 -122 -113 -200q-55 -38 -120 -54q196 -58 269 -195q36 -67 36 -147z
M936 1108q0 274 -338 274q-27 0 -180 -6v-506h223q295 0 295 238zM999 512q0 184 -164 274q-82 45 -196 45h-221v-436q0 -119 59 -167q53 -44 174 -44q348 0 348 328z" />
    <glyph glyph-name="C" unicode="C" horiz-adv-x="1493" 
d="M1415 451q-35 -115 -81 -207q-25 -50 -50 -92q-21 3 -42 3q-17 0 -34 -2q-120 -26 -249 -48q-53 -9 -138 -9q-196 0 -355 77q-171 83 -268 241q-92 150 -92 336q0 194 93 350.5t263.5 245t379.5 88.5q173 0 338 -57q73 -25 94 -25q29 0 37 12h30l19 -297h-39
q-73 200 -263 277q-93 38 -204 38q-344 0 -487 -284q-68 -135 -68 -307q0 -257 158 -445q168 -199 420 -199q330 0 499 304h39z" />
    <glyph glyph-name="D" unicode="D" horiz-adv-x="1556" 
d="M1444 809q0 -181 -93 -335q-90 -149 -249 -243q-173 -102 -416 -102h-655v39h35q114 0 144 59q17 33 17 90v881q0 127 -60 152q-34 14 -95 14h-41v39q364 18 633 18q333 0 539 -136q241 -160 241 -476zM1251 776q0 312 -193 466q-176 140 -497 140q-64 0 -164 -8v-1093
q0 -86 53 -102q37 -11 115 -11q263 0 386 66q165 88 250 282q50 114 50 260z" />
    <glyph glyph-name="E" unicode="E" horiz-adv-x="1217" 
d="M1126 434l-32 -305h-1088v39h57q151 0 179 68q14 34 14 100v864q0 117 -60 147q-34 17 -104 17h-45v39h983l17 -285h-37q-31 211 -152 211h-432v-504h367q65 0 93 47q19 32 25 107h39v-389h-39q-10 88 -31 119q-29 43 -108 43h-346v-437q0 -63 24 -87.5t87 -24.5h315
q131 0 183 91q28 49 55 140h36z" />
    <glyph glyph-name="F" unicode="F" horiz-adv-x="1087" 
d="M1006 1161h-35q-2 92 -40.5 130t-129.5 38h-389v-481h405q110 0 119 131h35v-361h-35q-3 81 -33 116q-33 40 -112 40h-379v-448q0 -118 65 -143q39 -15 113 -15v-39h-498v39q61 4 85 14q46 19 59 81q6 29 6 106v802q0 108 -23 144q-31 48 -131 49v39h918v-242z" />
    <glyph glyph-name="G" unicode="G" horiz-adv-x="1516" 
d="M1466 639q-143 -9 -143 -129v-285q-248 -129 -549 -129q-192 0 -342 84q-158 88 -241 255q-74 149 -74 306q0 264 174 467q193 226 540 226q156 0 352 -56q49 -14 56 -14q30 0 47 14h29v-331h-41q-72 335 -420 335q-259 0 -408 -189q-137 -174 -137 -439q0 -289 174 -456
q158 -151 357 -151q156 0 313 78v258q0 89 -38 124q-35 32 -126 32h-76v37h553v-37z" />
    <glyph glyph-name="H" unicode="H" horiz-adv-x="1622" 
d="M1563 129h-580v39h64q122 0 148 65q13 33 13 89v415h-802v-389q0 -99 31 -137q35 -43 132 -43h6v-39h-514v39h13q119 0 147 59q15 32 15 90v902q0 80 -35 111q-31 28 -113 34v39h487v-39q-135 0 -157 -74q-12 -41 -12 -123v-356h802v403q0 87 -38 120q-34 30 -123 30h-39
v39h526v-39q-119 -4 -142 -68q-14 -38 -14 -100v-850q0 -136 66 -163q37 -15 98 -15h21v-39z" />
    <glyph glyph-name="I" unicode="I" horiz-adv-x="682" 
d="M590 129h-498v39q95 4 126 43q28 35 28 133v872q0 83 -36 115q-33 28 -118 33v39h498v-39q-129 0 -157 -62q-17 -37 -17 -104v-868q0 -121 67 -147q38 -15 107 -15v-39z" />
    <glyph glyph-name="J" unicode="J" horiz-adv-x="618" 
d="M559 1364q-89 -3 -122 -31q-38 -32 -38 -119v-874q0 -425 -201 -603q-96 -85 -223 -85q-63 0 -122 24q-76 31 -76 86q0 32 21 57t52 25q30 0 100 -48t111 -48q168 0 168 301v1094q0 174 -57 203q-35 18 -109 18h-22v39h518v-39z" />
    <glyph glyph-name="K" unicode="K" horiz-adv-x="1430" 
d="M1432 129h-601v39q134 2 134 57q0 60 -252 312q-78 78 -102 99q-72 63 -117 78q-24 8 -58 8q-13 0 -26 -1v-383q0 -95 34.5 -132.5t128.5 -37.5h27v-39h-561v39h37q88 0 124 30q40 33 40 119v899q0 86 -40 119q-36 29 -124 29h-37v39h553v-39h-19q-91 0 -127 -35.5
t-36 -126.5v-442q109 11 229 131q163 163 247 311q38 67 38 98q0 64 -142 64v39h539v-39q-188 -2 -270 -84q-30 -30 -88 -115q-28 -42 -85 -126q-97 -138 -235 -242q89 -13 408 -391l97 -115q15 -18 56 -64q57 -59 228 -59v-39z" />
    <glyph glyph-name="L" unicode="L" horiz-adv-x="1130" 
d="M1114 428l-158 -299h-915v39h68q73 0 101 30.5t28 104.5v907q0 88 -36.5 121t-125.5 33h-29v39h604v-39h-76q-131 0 -153 -48q-14 -30 -14 -93v-944q0 -76 81 -76h302q105 0 175 81q35 40 111 144h37z" />
    <glyph glyph-name="M" unicode="M" horiz-adv-x="1878" 
d="M1835 129h-526v39q191 0 182 135l-59 918h-5l-509 -1092h-48l-526 1092l-55 -922q-7 -125 164 -131v-39h-426v39q137 0 160 78q12 41 18 141l49 797q8 136 -33 160q-26 15 -90 20v37h309l494 -1032l491 1032h301v-37l-66 -6q-43 -4 -57 -22t-12 -52l66 -928q4 -61 8 -85
q9 -57 30 -78q25 -25 140 -25v-39z" />
    <glyph glyph-name="N" unicode="N" horiz-adv-x="1665" 
d="M1630 1364q-91 0 -125 -12q-61 -22 -61 -95v-1142h-53l-1061 1110v-879q0 -140 74 -164q44 -14 133 -14v-39h-476v39h9q168 0 168 137v1008q-70 48 -172 51v39h321l965 -1006v815q0 117 -76 138q-43 12 -125 14v39h479v-39z" />
    <glyph glyph-name="O" unicode="O" horiz-adv-x="1686" 
d="M1577 801q0 -305 -213 -507q-209 -198 -516 -198q-195 0 -359 75q-176 80 -280 233q-100 146 -100 333q0 199 94.5 358t269.5 250q172 89 385 89q288 0 496 -170q223 -181 223 -463zM1384 733q0 273 -151 455q-160 194 -428 194q-245 0 -383 -193q-121 -170 -121 -388
q0 -178 72 -324q76 -158 220 -246q137 -84 298 -84q314 0 438 301q55 134 55 285z" />
    <glyph glyph-name="P" unicode="P" horiz-adv-x="1153" 
d="M1079 1059q0 -198 -156 -302q-134 -89 -339 -89q-93 0 -174 16v-358q0 -90 36.5 -124t126.5 -34h68v-39h-567v39h28q76 0 104 21q34 25 34 98v968q0 109 -97 109h-102v39l258 12q144 6 254 6q219 0 353 -71q173 -92 173 -291zM887 1065q0 317 -336 317q-92 0 -141 -8
v-651q69 -16 110 -16q226 0 322 174q45 82 45 184z" />
    <glyph glyph-name="Q" unicode="Q" horiz-adv-x="1686" 
d="M1640 -242l-32 -43q-49 -12 -95 -12q-144 0 -296 96q-26 16 -252 192q-98 76 -179 107q-185 13 -336 93q-163 87 -254 236q-87 144 -87 318q0 194 96 350t269 248q170 91 376 91q298 0 505 -168q222 -180 222 -471q0 -332 -259 -539q-125 -100 -288 -143q96 -35 289 -198
q179 -152 321 -157zM1384 733q0 273 -151 455q-160 194 -428 194q-245 0 -383 -193q-121 -170 -121 -388q0 -177 72 -324q77 -158 221 -245q137 -83 297 -83q314 0 438 301q55 134 55 283z" />
    <glyph glyph-name="R" unicode="R" horiz-adv-x="1642" 
d="M1630 106q-45 -2 -86 -2q-181 0 -292 49q-104 46 -255 197l-135 135q-134 134 -211 183q-102 -4 -139 -4q-40 0 -104 4v-346q0 -115 68 -141q34 -13 95 -13h47v-39h-579v39h35q95 0 129.5 37t34.5 133v862q0 91 -32 127.5t-122 36.5h-45v39q41 0 180 8q36 2 78 4
q131 6 258 6q222 0 363 -71q186 -93 186 -293q0 -123 -78 -212q-73 -84 -195 -120q94 -73 234 -213l162 -162q128 -128 256 -176q67 -25 147 -31v-37zM911 1044q0 217 -161 295q-89 43 -240 43q-66 0 -102 -4v-671q35 -5 127 -5q376 0 376 342z" />
    <glyph glyph-name="S" unicode="S" 
d="M911 446q0 -162 -131 -261q-119 -89 -286 -89q-72 0 -213 39q-62 17 -72 17q-26 0 -41 -23h-35l-43 311h39q31 -128 122 -206q95 -82 224 -82q117 0 196 61q87 66 87 180q0 104 -118 205q-59 50 -216 147q-144 89 -211 155q-113 111 -113 237q0 175 179 258q84 39 186 39
q101 0 207 -36q47 -16 71 -16q22 0 37 21h33l35 -260h-35q-41 106 -128 172q-91 69 -202 69q-96 0 -159 -47q-70 -52 -70 -145q0 -102 116 -199q33 -28 203 -134q160 -100 226 -167q112 -113 112 -246z" />
    <glyph glyph-name="T" unicode="T" horiz-adv-x="1386" 
d="M1321 1102h-37q-28 171 -80 208q-26 19 -69 19h-357v-1012q0 -86 39 -119q36 -30 123 -30h76v-39h-645v39h75q87 0 124.5 31.5t37.5 117.5v1012h-356q-76 0 -113 -80q-18 -39 -37 -147h-36l32 332h39q5 -31 64 -31h985q58 0 63 31h39z" />
    <glyph glyph-name="U" unicode="U" horiz-adv-x="1622" 
d="M1597 1364q-100 -2 -143 -45t-43 -143v-553q0 -170 -85 -296t-243 -186q-118 -45 -278 -45q-256 0 -417 128q-175 139 -175 388v598q0 120 -64 141q-34 11 -112 13v39h526v-39h-18q-87 0 -123 -31q-39 -33 -39 -119v-569q0 -216 127 -331q122 -111 340 -111
q467 0 467 444v477q0 185 -69 217q-38 18 -132 23v39h481v-39z" />
    <glyph glyph-name="V" unicode="V" horiz-adv-x="1409" 
d="M1389 1364q-85 0 -136 -49q-41 -38 -75 -127l-422 -1092h-103l-444 1108q-25 63 -38 85q-43 75 -163 75v39h563v-39q-179 -2 -202 -62q-12 -30 8 -79l368 -918l324 846q35 91 35 127q0 86 -191 86v39h476v-39z" />
    <glyph glyph-name="W" unicode="W" horiz-adv-x="2048" 
d="M2034 1364q-117 0 -158 -64q-26 -40 -57 -122l-412 -1082h-98l-269 633l-258 -633h-100l-426 1090q-41 105 -85 139q-49 39 -157 39h-12v39h530v-39h-34q-112 0 -112 -72q0 -24 13 -57l373 -938l221 547l-166 403q-30 74 -82 98q-40 19 -129 19v39h840v-39
q-80 0 -122 -19q-54 -24 -81 -90l-131 -319l269 -639l362 950q17 45 11 68q-12 45 -154 49v39h424v-39zM1167 1276q11 27 11 44q0 44 -62 44h-86q-66 0 -66 -40q0 -15 9 -36l102 -237z" />
    <glyph glyph-name="X" unicode="X" horiz-adv-x="1536" 
d="M1530 129h-565v39q133 0 133 50q0 35 -62 112l-307 379l-326 -392q-51 -61 -51 -99q0 -50 113 -50h41v-39h-488v39q137 11 221 87q47 42 121 132l318 383l-318 399q-57 72 -92 105q-56 53 -115 72q-48 16 -135 18v39h611v-39q-83 1 -123 -12t-37 -41q3 -30 35 -70
l278 -344l222 264q91 108 91 157q0 46 -83 46h-60v39h492v-39q-177 0 -348 -209l-262 -321l385 -480q57 -71 81 -95q52 -52 103 -69q42 -14 127 -22v-39z" />
    <glyph glyph-name="Y" unicode="Y" horiz-adv-x="1450" 
d="M1407 1364q-168 -13 -256 -162l-340 -575v-308q0 -85 41 -119q37 -32 123 -32h26v-39h-563v39h39q86 0 123 30q41 34 41 117v289l-365 569q-46 72 -71 101q-46 53 -93 72q-40 16 -116 18v39h545v-39q-148 0 -144 -54q2 -28 35 -79l328 -506l289 491q31 53 31 86
q0 62 -136 62v39h463v-39z" />
    <glyph glyph-name="Z" unicode="Z" horiz-adv-x="1386" 
d="M1288 500l-24 -371h-1182v47l919 1153h-608q-128 0 -161 -81q-19 -47 -27 -134h-37l10 289h1055v-47l-926 -1153h725q133 0 171 109q19 55 48 188h37z" />
    <glyph glyph-name="asciicircum" unicode="^" horiz-adv-x="961" 
d="M924 788h-95l-350 586l-348 -586h-94l428 717h31z" />
    <glyph glyph-name="grave" unicode="`" horiz-adv-x="682" 
d="M526 1128h-26l-217 146q-140 94 -140 145q0 60 64 60q66 0 131 -90z" />
    <glyph glyph-name="a" unicode="a" horiz-adv-x="811" 
d="M799 217q-139 -113 -203 -113q-86 0 -94 125q-153 -125 -238 -125q-83 0 -134 42q-56 45 -56 126q0 108 112 159q38 17 157 55q99 31 155 65v162q0 90 -35 131q-50 59 -115 59q-43 0 -83 -28q-44 -30 -44 -72q0 -16 10 -39l-139 -68q-6 20 -6 29q0 45 65 111
q126 127 238 127q137 0 215 -109q31 -43 31 -176v-275q0 -173 22 -191q11 -9 31 -9q47 0 100 45zM498 266v244q-39 -23 -121 -57q-95 -39 -115 -53q-57 -39 -57 -103q0 -51 35 -86t86 -35q44 0 172 90z" />
    <glyph glyph-name="b" unicode="b" horiz-adv-x="1024" 
d="M936 567q0 -200 -138.5 -331.5t-340.5 -131.5q-75 0 -178 17q-52 9 -125 22v1110q0 99 -26 112q-13 7 -58 13l-58 8v35l246 84h33v-686q199 144 309 144q148 0 246 -127q90 -117 90 -269zM799 510q0 212 -137 312q-63 46 -142 46q-95 0 -229 -96v-393q0 -98 62 -156.5
t161 -58.5q137 0 215 108q70 96 70 238z" />
    <glyph glyph-name="c" unicode="c" horiz-adv-x="874" 
d="M801 317q-134 -213 -363 -213q-221 0 -307 216q-37 93 -37 180q0 266 236 401q108 62 235 62q134 0 200 -57q30 -26 30 -60q0 -62 -60 -62q-45 0 -108 59q-71 66 -131 66q-149 0 -228 -185q-37 -86 -37 -179q0 -211 142 -310q67 -47 147 -47q144 0 250 148z" />
    <glyph glyph-name="d" unicode="d" horiz-adv-x="1024" 
d="M1020 207l-262 -103h-25v146q-202 -146 -317 -146q-189 0 -284 198q-44 92 -44 198q0 268 220 401q102 62 224 62q105 0 201 -39v397q0 34 -24 46q-11 6 -56 11l-67 8v35l284 84v-1202q0 -75 60 -75q18 0 41 7l49 15v-43zM733 295v459q-105 153 -244 153
q-161 0 -231 -166q-33 -78 -33 -172q0 -135 65 -246q77 -131 202 -131q96 0 241 103z" />
    <glyph glyph-name="e" unicode="e" horiz-adv-x="897" 
d="M831 649h-598q-8 -62 -8 -86q0 -210 159 -310q73 -46 153 -46q147 0 260 133l22 -25q-167 -211 -364 -211q-207 0 -309 207q-48 98 -48 213q0 245 186 376q89 63 210 63q173 0 241 -98q27 -62 96 -169v-47zM659 702q-21 136 -111 194q-43 28 -91 28q-162 0 -217 -222h419
z" />
    <glyph glyph-name="f" unicode="f" horiz-adv-x="555" 
d="M844 1409q0 -15 -22 -56.5t-34 -41.5q-5 0 -77 49q-75 51 -162 51q-227 0 -227 -315v-156h206l15 -90h-221v-561q0 -74 40 -100q32 -21 111 -21h78v-39h-506v39q111 0 129 52q10 29 10 89v541h-151v35q84 18 151 55q0 262 158 420q145 145 291 145q109 0 181 -57
q30 -24 30 -39z" />
    <glyph glyph-name="g" unicode="g" horiz-adv-x="961" 
d="M967 772q-113 7 -205 25q35 -67 35 -131q0 -171 -168 -256q-81 -41 -191 -41q-45 0 -94 16q-6 -6 -74 -47q-51 -30 -51 -57q0 -71 293 -74q156 -1 195 -6q239 -28 239 -211q0 -118 -141 -222q-158 -116 -418 -116q-114 0 -201 40q-114 52 -114 154q0 53 37 94
q23 25 90 75q63 48 92 83q-67 7 -125 43q-70 43 -70 103t82 92q52 21 127 59q-196 79 -196 254q0 100 62 180q60 74 157 110q66 24 141 24q144 0 229 -82q85 0 188 11q28 3 81 9v-129zM659 647q0 115 -49 189q-57 88 -166 88q-99 0 -151 -70q-47 -62 -47 -164
q0 -156 96 -239q49 -43 121 -43q96 0 149 74q47 65 47 165zM840 -47q0 108 -138 121q-33 3 -61 4l-228 8q-72 3 -81 4q-42 -35 -115 -114q-18 -25 -18 -62q0 -108 153 -175q69 -30 150 -30q184 0 290 124q48 56 48 120z" />
    <glyph glyph-name="h" unicode="h" horiz-adv-x="1067" 
d="M1038 129h-442v39q82 0 114 33q29 31 37.5 114.5t8.5 315.5q0 248 -187 248q-89 0 -241 -97v-491q0 -73 31 -99q28 -24 102 -24v-39h-410v39q82 4 112 41q27 33 27 117v981q0 60 -51 67l-88 12v35l244 84h33v-671q219 129 338 129q227 0 227 -306q0 -228 -10 -411
q2 -56 61 -70q33 -8 94 -8v-39z" />
    <glyph glyph-name="i" unicode="i" horiz-adv-x="532" 
d="M350 1356q0 -35 -27 -56.5t-63 -21.5q-35 0 -61.5 22t-26.5 56t26.5 56t61.5 22q36 0 63 -21.5t27 -56.5zM492 129h-455v39q88 0 126 30q44 34 44 119v412q0 74 -23 87q-14 8 -41 13l-96 19v33l266 92h31v-688q0 -117 148 -117v-39z" />
    <glyph glyph-name="j" unicode="j" horiz-adv-x="512" 
d="M346 1356q0 -35 -27 -56.5t-63 -21.5q-35 0 -61.5 22t-26.5 56t26.5 56t61.5 22q36 0 63 -21.5t27 -56.5zM344 92q0 -178 -79 -299q-92 -141 -261 -141q-67 0 -132 22q-87 29 -87 84q0 31 15 60q18 35 46 35q24 0 100.5 -61.5t123.5 -61.5q137 0 137 223v794
q0 44 -12.5 60t-55.5 24l-92 17v33l268 92h29v-881z" />
    <glyph glyph-name="k" unicode="k" horiz-adv-x="1024" 
d="M1016 129h-441v39q93 0 93 37q0 21 -31 53l-311 324v-314q0 -59 31 -81q26 -19 87 -19h21v-39h-420v39q143 0 143 137v989q0 42 -9 56q-11 18 -50 24l-84 12v35l250 84h31v-889l295 211q41 29 27 52q-14 22 -70 22h-35v39h405v-39q-95 -4 -168 -37q-50 -23 -147 -92
l-189 -135l328 -334q69 -70 108 -95q61 -39 136 -40v-39z" />
    <glyph glyph-name="l" unicode="l" horiz-adv-x="492" 
d="M473 129h-461v39q86 0 123 25q47 31 47 112v989q0 44 -10 59q-12 19 -53 23l-92 10v35l262 84h30v-1214q0 -123 119 -123h35v-39z" />
    <glyph glyph-name="m" unicode="m" horiz-adv-x="1622" 
d="M1620 129h-461v39h19q75 0 104 29q33 33 33 290v160q0 234 -154 234q-98 0 -272 -115v-471q0 -75 26 -101t101 -26v-39h-420v39q113 0 141 66q15 35 15 92v378q0 76 -37 124q-41 53 -115 53q-94 0 -274 -119v-467q0 -100 53 -117q32 -10 90 -10v-39h-426v39q84 0 116 38
q29 35 29 120v401q0 51 -7 69q-11 29 -52 35l-80 11v35l246 86h31v-164q233 164 364 164q75 0 127.5 -45t67.5 -119q74 48 126 77q154 87 236 87q205 0 205 -310q0 -223 -6 -393q-3 -92 108 -92h66v-39z" />
    <glyph glyph-name="n" unicode="n" horiz-adv-x="1067" 
d="M1042 129h-440v39q81 3 117 39q43 43 43 461q0 148 -81 194q-37 21 -81 21q-82 0 -272 -131v-445q0 -106 52 -127q30 -12 85 -12v-39h-412v39q137 0 137 129v430q0 52 -7 68q-10 23 -54 32l-70 15v32l236 86h33v-159q147 92 168 103q110 59 184 59q219 0 219 -308
q0 -183 -11 -333q-2 -28 -5 -72q-3 -82 114 -82h45v-39z" />
    <glyph glyph-name="o" unicode="o" horiz-adv-x="1067" 
d="M975 532q0 -181 -126.5 -304.5t-307.5 -123.5q-260 0 -389 208q-60 97 -60 216q0 188 127.5 311.5t315.5 123.5t314 -122t126 -309zM821 481q0 157 -77 284q-90 148 -238 148q-114 0 -190 -103q-70 -95 -70 -212q0 -256 158 -384q74 -60 159 -60q141 0 220 155
q38 74 38 172z" />
    <glyph glyph-name="p" unicode="p" horiz-adv-x="1024" 
d="M928 575q0 -120 -58.5 -226t-159.5 -170t-216 -64q-77 0 -187 41v-332q0 -133 137 -133h52v-39h-484v39h21q81 0 110 36q27 32 27 115v903q0 54 -57 68l-66 16v39l219 135h41v-196q197 149 318 149q168 0 261 -195q42 -88 42 -186zM791 483q0 244 -147 335
q-61 38 -122 38q-98 0 -215 -100v-467q124 -111 242 -111q143 0 211 151q31 69 31 154z" />
    <glyph glyph-name="q" unicode="q" horiz-adv-x="1024" 
d="M1016 -348h-496v39h80q82 0 111 39q26 34 26 118v408q-163 -143 -309 -143q-156 0 -250 126q-84 114 -84 275q0 259 214 389q99 60 218 60q121 0 258 -70q34 45 68 65h35q-13 -58 -13 -104v-1038q0 -125 119 -125h23v-39zM737 303v365q0 148 -113 213q-52 30 -118 30
q-138 0 -211 -107q-64 -93 -64 -237q0 -140 70 -246q80 -122 213 -122q119 0 223 104z" />
    <glyph glyph-name="r" unicode="r" horiz-adv-x="682" 
d="M702 901l-49 -123q-49 7 -108 33q-45 20 -72 20q-42 0 -80 -53q-47 -66 -65 -102v-397q0 -67 35 -91q28 -20 98 -20h78v-39h-486v39q78 1 109 40q28 34 28 114v473l-137 49v35l234 81h41l4 -217l62 101q37 56 53 72q35 34 79 34q25 0 70 -18z" />
    <glyph glyph-name="s" unicode="s" horiz-adv-x="618" 
d="M553 338q0 -104 -74.5 -169t-179.5 -65q-49 0 -90 15q-46 12 -55 12q-20 0 -35 -25h-31l-22 230h32q43 -193 195 -193q85 0 126 68q19 31 19 68q0 60 -65 124q-40 39 -139 107q-92 63 -117 90q-51 55 -51 133q0 108 79 171q73 59 183 59q78 0 164 -33l4 -187h-35
q-15 105 -87 149q-35 21 -77 21q-51 0 -88 -32t-37 -82q0 -63 64 -119q31 -27 130 -89q84 -53 124 -97q63 -70 63 -156z" />
    <glyph glyph-name="t" unicode="t" horiz-adv-x="598" 
d="M584 272q-77 -168 -224 -168q-95 0 -153 73q-53 68 -53 165v508h-95v33q121 59 197 260h35v-203h293l-33 -90h-260v-477q0 -65 34 -115q39 -57 101 -57q67 0 125 102z" />
    <glyph glyph-name="u" unicode="u" horiz-adv-x="1067" 
d="M1018 188l-275 -84v164q-228 -164 -348 -164q-92 0 -154.5 59t-62.5 150v455q0 69 -55 84l-72 20v31l264 57v-573q0 -83 51 -133.5t134 -50.5q107 0 243 112v441q0 56 -11 75q-14 24 -64 33l-103 19v28l316 49v-690q0 -53 36 -58q18 -2 58 5l43 8v-37z" />
    <glyph glyph-name="v" unicode="v" horiz-adv-x="981" 
d="M969 903q-104 -18 -162 -149l-283 -643h-59l-297 680q-41 94 -90 102l-64 10v37h418v-37q-99 -3 -124 -24q-23 -19 9 -93l218 -510l208 474q30 68 3 107t-134 46v37h357v-37z" />
    <glyph glyph-name="w" unicode="w" horiz-adv-x="1516" 
d="M1507 903q-78 -8 -123 -65q-24 -30 -45 -82l-264 -645h-55l-244 577l-246 -577h-57l-305 688q-41 92 -152 104v37h398v-37q-112 -6 -110 -58q1 -28 24 -79l221 -494l201 475q-58 139 -152 150l-49 6v37h424v-37q-77 -2 -98 -31t10 -104l200 -487l197 479q34 82 7 112
q-27 31 -126 31v37h344v-37z" />
    <glyph glyph-name="x" unicode="x" 
d="M991 129h-409v41q77 0 94 19q17 18 -21 67l-182 233l-180 -202q-26 -29 -26 -54q0 -63 130 -63v-41h-381v41q73 0 118 25q37 20 91 81l219 246l-198 260q-88 116 -215 121v37h413v-37q-69 0 -83 -19q-16 -22 16 -65l153 -203l134 150q38 43 38 75q0 62 -106 62v37h395
v-37l-59 -6q-101 -10 -201 -121l-174 -192l246 -308q85 -106 188 -106v-41z" />
    <glyph glyph-name="y" unicode="y" horiz-adv-x="961" 
d="M950 903q-109 -11 -170 -164l-348 -868q-88 -219 -180 -219q-32 0 -58 19.5t-26 51.5q0 37 33 56q53 13 137 59q40 41 70 117l61 154l-317 673q-30 63 -61 89q-38 31 -101 32v37h411v-37q-90 -1 -109 -29q-20 -29 11 -96l232 -499l174 434q29 72 29 113q0 23 -8 36
q-24 38 -120 41v37h340v-37z" />
    <glyph glyph-name="z" unicode="z" horiz-adv-x="831" 
d="M807 352l-84 -223h-660v39l519 698h-346q-36 0 -56 -41q-13 -26 -53 -155h-39l64 325h34q0 -38 32 -49q17 -6 65 -6h487v-37l-516 -700h375q55 0 92 50q20 27 49 99h37z" />
    <glyph glyph-name="asciitilde" unicode="~" horiz-adv-x="1110" 
d="M1096 922q-12 -306 -265 -306q-94 0 -305 90.5t-282 90.5q-139 0 -172 -181h-58q7 306 265 306q80 0 296 -91q223 -94 295 -94q151 0 168 185h58z" />
    <glyph glyph-name="ch161" unicode="!" horiz-adv-x="569" 
d="M375 989q0 -92 -33.5 -283.5t-34.5 -289.5l-1 -115h-41l-1 117q-1 100 -34 294q-33 191 -33 275q0 156 90 156q88 0 88 -154zM379 139q0 -36 -27 -61t-63 -25t-61.5 25t-26.5 61q-1 38 24.5 65t63.5 27t64 -27t26 -65z" />
    <glyph glyph-name="ch162" unicode="&#x22;" horiz-adv-x="569" 
d="M452 1273q0 -62 -14.5 -186.5t-14.5 -187.5h-42q0 63 -14 187.5t-14 186.5q0 68 49 68q50 0 50 -68zM218 1273q0 -62 -14.5 -186.5t-14.5 -187.5h-42q0 63 -14 187.5t-14 186.5q0 68 49 68q50 0 50 -68z" />
    <glyph glyph-name="ch163" unicode="#" horiz-adv-x="1368" 
d="M1272 498h-332l-88 -416h-88l88 416h-457l-88 -416h-88l88 416h-213v88h232l84 405h-316v88h336l86 416h88l-86 -416h453l88 416h88l-88 -416h213v-88h-232l-84 -405h316v-88zM952 991h-454l-84 -405h454z" />
    <glyph glyph-name="ch164" unicode="$" horiz-adv-x="938" 
d="M856 432q0 -239 -291 -315v-197h-53v182q-28 -3 -57 -3q-39 0 -80 5v-184h-53v197q-94 20 -172 74q-97 67 -97 149q0 27 20.5 48.5t47.5 21.5q51 0 88 -98q40 -106 113 -140v584q-232 144 -232 307q0 97 70 172q63 68 162 96v133h53v-127q35 5 69 5t68 -5v127h53v-133
q154 -43 212 -112q28 -33 28 -68q0 -64 -60 -64q-31 0 -57 29l-40 56q-39 54 -83 92v-473q220 -135 267 -236q24 -52 24 -123zM512 815v467q-28 17 -84 17q-24 0 -53 -3v-385zM322 946v342q-119 -40 -119 -153q0 -103 119 -189zM733 383q0 82 -62 142q-33 32 -106 83v-450
q168 72 168 225zM512 143v492l-137 94v-571q36 -16 99 -16q18 0 38 1z" />
    <glyph glyph-name="ch165" unicode="%" horiz-adv-x="1473" 
d="M1425 461q0 -202 -131 -300q-62 -46 -133 -46q-152 0 -227 171q-35 80 -35 175q0 201 131 300q61 46 131 46q154 0 229 -172q35 -80 35 -174zM1274 1468l-993 -1394h-86l995 1394h84zM573 1087q0 -201 -131 -300q-61 -46 -133 -46q-152 0 -227 172q-35 80 -35 174
q0 202 131 301q61 46 131 46q154 0 229 -172q35 -80 35 -175zM1311 461q0 315 -150 315q-147 0 -147 -315q0 -316 147 -316q150 0 150 316zM459 1087q0 316 -150 316q-147 0 -147 -316q0 -315 147 -315q150 0 150 315z" />
    <glyph glyph-name="ch166" unicode="&#x26;" horiz-adv-x="1493" 
d="M1466 948q-135 0 -174 -39q-35 -35 -95 -135l-89 -148q-50 -75 -123 -159q37 -63 136 -223q47 -74 110 -74q61 0 160 70l18 -33q-135 -107 -252 -107q-114 0 -179 93q-37 52 -95 161q-152 -162 -315 -224q-79 -30 -152 -30q-143 0 -237.5 97.5t-94.5 240.5q0 167 150 273
q79 56 208 108q-145 125 -145 266q0 115 84 179q76 59 194 59q158 0 228 -95q33 -45 33 -104q0 -146 -232 -260q211 -143 357 -362q256 325 256 405q0 41 -113 41v37h362v-37zM711 1110q0 75 -37 121q-40 51 -113 51q-135 0 -135 -147q0 -132 152 -246q133 79 133 221z
M860 389q-139 234 -389 406q-219 -151 -219 -332q0 -115 67 -187.5t181 -72.5q93 0 198 57q99 53 162 129z" />
    <glyph glyph-name="ch167" unicode="'" horiz-adv-x="362" 
d="M283 1325q0 -35 -25 -180l-51 -295h-49l-52 295q-24 136 -24 180q0 47 27 78t73 31q101 0 101 -109z" />
    <glyph glyph-name="ch168" unicode="(" horiz-adv-x="569" 
d="M526 891q-311 -314 -311 -633q0 -149 74 -311q64 -141 233 -334l-8 -12q-160 102 -246 198q-184 207 -184 463q0 236 172 432q90 103 254 209z" />
    <glyph glyph-name="ch169" unicode=")" horiz-adv-x="569" 
d="M492 262q0 -253 -187 -463q-86 -97 -244 -198l-12 12q58 63 103 119q208 259 208 526q0 316 -311 633l17 12q168 -113 251 -209q175 -202 175 -432z" />
    <glyph glyph-name="multiply" unicode="&#xd7;" horiz-adv-x="946" 
d="M802 219l-58 -57l-277 275l-277 -275l-59 57l275 278l-275 278l62 56l274 -276l277 276l58 -56l-279 -278z" />
    <glyph glyph-name="ch171" unicode="+" horiz-adv-x="946" 
d="M835 452h-321v-323h-84v323h-325v83h325v328h84v-328h321v-83z" />
    <glyph glyph-name="ch174" unicode="." horiz-adv-x="569" 
d="M375 141q0 -36 -25 -62t-61 -26q-37 0 -62.5 25.5t-25.5 62.5q0 36 23.5 63t58.5 27q38 0 65 -26t27 -64z" />
    <glyph glyph-name="ch175" unicode="/" horiz-adv-x="569" 
d="M508 1425l-379 -1564h-63l376 1564h66z" />
    <glyph glyph-name="periodcentered" unicode="&#xb7;" horiz-adv-x="532" 
d="M371 791q0 -97 -105 -97q-44 0 -74 27t-30 70q0 96 104 96q105 0 105 -96z" />
    <glyph glyph-name="glyph144" unicode=":" horiz-adv-x="569" 
d="M375 710q0 -36 -25 -62t-61 -26q-37 0 -62.5 25.5t-25.5 62.5q0 36 23.5 63t58.5 27q38 0 65 -26t27 -64zM375 141q0 -36 -25 -62t-61 -26q-37 0 -62.5 25.5t-25.5 62.5q0 36 23.5 63t58.5 27q38 0 65 -26t27 -64z" />
    <glyph glyph-name="glyph145" unicode=";" horiz-adv-x="532" 
d="M377 864q0 -43 -30.5 -69.5t-74.5 -26.5t-74 26.5t-30 69.5q0 96 104 96q44 0 74.5 -26.5t30.5 -69.5zM393 127q0 -100 -67 -184q-62 -79 -160 -117l-14 37q157 91 157 205q0 43 -28 43q-8 0 -25 -3.5t-25 -3.5q-39 0 -65.5 27t-26.5 66q0 44 33 72t78 28q66 0 106 -54
q37 -48 37 -116z" />
    <glyph glyph-name="glyph146" unicode="&#x3c;" horiz-adv-x="1366" 
d="M1219 289l-1074 454v82l1074 455v-102l-951 -394l951 -393v-102z" />
    <glyph glyph-name="glyph147" unicode="=" horiz-adv-x="946" 
d="M836 539h-731v86h731v-86zM836 362h-731v86h731v-86z" />
    <glyph glyph-name="glyph148" unicode="&#x3e;" horiz-adv-x="1366" 
d="M1221 743l-1074 -454v102l951 393l-951 394v102l1074 -455v-82z" />
    <glyph glyph-name="glyph150" unicode="*" horiz-adv-x="680" 
d="M649 1104q0 -45 -59 -45q-15 0 -94 15l-84 16l-9 -29l64 -45q25 -17 80 -59q22 -23 22 -44q0 -15 -12 -30q-34 -27 -72 11q-8 8 -57 79l-47 68q-9 -5 -27 -12l15 -80q16 -85 16 -96q0 -58 -47 -58q-43 0 -43 56q0 31 16 98l19 80q-21 4 -29 12l-49 -68q-17 -24 -57 -79
q-24 -23 -45 -23q-42 0 -42 43q0 20 21 41q8 8 80 57l72 49q-11 15 -13 29l-80 -16q-75 -15 -96 -15q-57 0 -57 45q0 44 55 44q31 0 98 -15l80 -18q5 19 13 26l-72 50q-46 32 -80 59q-21 21 -21 40q0 15 14 29t29 14q20 0 44 -22l104 -147q9 4 31 12l-19 80q-16 67 -16 98
q0 56 43 56q47 0 47 -60l-31 -178q-5 0 27 -8l47 67q16 24 57 80q21 21 41 21q16 0 31 -12q12 -15 12 -31q0 -21 -22 -43q-5 -6 -80 -58l-68 -47q9 -11 17 -26l80 18q67 15 98 15q55 0 55 -44zM379 1102q0 37 -37 37t-37 -37q0 -36 37 -36t37 36zM348 791z" />
    <glyph glyph-name="YehHamA" unicode="&#x626;" horiz-adv-x="1309" 
d="M1176 888q77 7 80 -40v-48q-20 -192 -40 -192h-8q-15 56 -96 56q-166 0 -352 -248v-16q0 -40 272 -72q72 -70 72 -152q0 -226 -400 -488q-104 -56 -208 -56q-274 0 -392 336q-38 117 -7 326.5t185 259.5l14 -2q30 -16 -43.5 -91.5t-92.5 -196.5v-64q0 -192 208 -312
q72 -32 152 -32h32q232 0 464 224l-248 56q-64 42 -64 112v96q3 220 208 401q76 79 264 143zM590 1235q111 0 223 -111q11 -19 -8.5 -30t-35.5 5q-48 43 -136 43h-25q-37 0 -86 -31q0 -90 216 -111l143 56l6 -19q0 -101 -248 -180l-229 -130l-24 -6q-14 -3 -19 12
q0 54 155 149v6q-75 41 -75 118q35 229 143 229z" />
    <glyph glyph-name="glyph177" unicode="]" horiz-adv-x="618" 
d="M410 -309h-396v41h146q58 0 80 12q32 17 32 68v1531q0 51 -32 68q-22 12 -80 12h-146v41h396v-1773z" />
    <glyph glyph-name="glyph178" unicode="\" horiz-adv-x="938" 
d="M844 100h-88l-662 1334h88z" />
    <glyph glyph-name="glyph179" unicode="[" horiz-adv-x="618" 
d="M604 -309h-395v1773h395v-41h-145q-58 0 -80 -12q-33 -18 -33 -68v-1531q0 -50 33 -68q22 -12 80 -12h145v-41z" />
    <glyph glyph-name="glyph180" unicode="&#x2c6;" horiz-adv-x="682" 
d="M590 1124l-254 256l-242 -256v35l221 369h58l217 -369v-35z" />
    <glyph glyph-name="glyph181" unicode="_" horiz-adv-x="1024" 
d="M1040 -127h-1056v102h1056v-102z" />
    <glyph glyph-name="glyph182" unicode="-" horiz-adv-x="71" 
 />
    <glyph glyph-name="Kasratan" unicode="&#x64d;" horiz-adv-x="0" 
d="M549 -4q14 0 14 -21q-40 -116 -237 -209l-303 -166l-7 7v8q43 152 137 187l338 173zM606 -184l8 -7v-22q-62 -133 -173 -187q-344 -187 -382 -187q-14 0 -14 22q33 127 144 172l410 209h7z" />
    <glyph glyph-name="Fatha" unicode="&#x64e;" horiz-adv-x="0" 
d="M565 1722q12 7 7 -22q-68 -160 -209 -223l-345 -173q-22 6 -8 36q69 133 94 158z" />
    <glyph glyph-name="glyph206" unicode="}" horiz-adv-x="981" 
d="M770 561q-88 -16 -152 -65q-75 -59 -75 -140q0 -58 22 -147q25 -101 25 -172q0 -196 -183 -318q-85 -57 -194 -67v37q140 14 203 130q28 52 28 107q0 54 -19 161t-19 161q0 115 88 209q79 84 196 125q-175 52 -250 198q-34 66 -34 129q0 54 19 161t19 161q0 121 -107 195
q-50 35 -124 42v37q115 -10 209.5 -78t139.5 -174q28 -66 28 -133q0 -54 -23.5 -159.5t-23.5 -159.5q0 -81 76 -139q63 -49 151 -66v-35z" />
    <glyph glyph-name="glyph207" unicode="|" horiz-adv-x="1044" 
d="M567 -348h-88v1782h88v-1782z" />
    <glyph glyph-name="glyph208" unicode="{" horiz-adv-x="981" 
d="M768 -348q-152 14 -262 122q-115 113 -115 263q0 58 23.5 163.5t23.5 155.5q0 82 -75 140q-63 49 -152 65v35q135 25 198 115q29 42 29 90q0 50 -23.5 155.5t-23.5 163.5q0 150 115 263q110 108 262 122v-37q-142 -14 -203 -130q-28 -53 -28 -107t19 -161t19 -161
q0 -139 -132 -248q-64 -53 -152 -83q175 -56 250 -199q34 -65 34 -131q0 -54 -19 -161t-19 -161q0 -96 68 -163q65 -65 163 -74v-37z" />
    <glyph glyph-name="glyph210" unicode="&#xb2;" horiz-adv-x="618" 
d="M578 915l-25 -159h-506v24q29 29 176 159q103 91 134 127q75 87 75 163q0 59 -43.5 96t-103.5 37q-135 0 -181 -141h-43q12 99 85 157q70 56 171 56q94 0 161 -47q75 -54 75 -144q0 -104 -112 -187l-133 -98q-76 -56 -146 -129h280q50 0 69 18q16 16 24 68h43z" />
    <glyph glyph-name="glyph211" unicode="&#xb3;" horiz-adv-x="618" 
d="M578 991q0 -139 -163 -215q-75 -35 -157 -35q-52 0 -112 17q-80 23 -80 63q0 43 49 43q28 0 88.5 -41t97.5 -41q70 0 117 58q45 54 45 125q0 56 -33 97.5t-88 41.5q-41 0 -86 -35l-25 29q170 111 170 180q0 40 -32.5 65t-73.5 25q-97 0 -156 -106l-41 14q45 100 142 139
q47 19 96 19q65 0 113 -29q57 -34 57 -94q0 -75 -111 -144q114 -8 161 -89q22 -38 22 -87z" />
    <glyph glyph-name="glyph212" unicode="&#xb4;" horiz-adv-x="682" 
d="M526 1419q0 -51 -139 -145l-217 -146h-27l189 261q65 90 131 90q63 0 63 -60z" />
    <glyph glyph-name="glyph213" unicode="&#xb5;" horiz-adv-x="1024" 
d="M1016 332q-4 -93 -43 -155q-48 -77 -133 -77q-89 0 -132 89q-21 43 -22 102q-191 -191 -340 -191q-91 0 -156 86q-3 -31 -3 -59q0 -31 4 -60q1 -7 28 -136q17 -81 17 -136q0 -42 -26 -75t-67 -33q-88 0 -88 108q0 49 21 137l33 139q8 44 8 132v737h137v-442
q0 -133 21 -190q36 -95 145 -95q142 0 266 143v584h137v-616q0 -115 70 -115q62 0 80 123h43z" />
    <glyph glyph-name="glyph214" unicode="&#xb6;" horiz-adv-x="918" 
d="M930 1348h-131v-1696h-74v1696h-186v-1696h-74v995q-322 0 -428 179q-51 86 -51 200q0 240 209 332q102 45 241 45h494v-55z" />
    <glyph glyph-name="glyph215" unicode="&#xb8;" horiz-adv-x="682" 
d="M492 -123q0 -74 -51 -125t-124 -51q-38 0 -88 16l15 29q27 -8 53 -8q44 0 76.5 30t32.5 74q0 74 -66 74q-47 0 -131 -41l160 264h30l-65 -110q11 2 21 2q75 0 116 -75q21 -38 21 -79z" />
    <glyph glyph-name="glyph216" unicode="&#xb9;" horiz-adv-x="618" 
d="M487 756h-327v32h84q26 0 26 33v504q-82 -53 -143 -78l-18 27q129 74 204 160h62v-611q0 -35 39 -35h73v-32z" />
    <glyph glyph-name="glyph217" unicode="&#xba;" horiz-adv-x="705" 
d="M643 1176q0 -142 -142 -223q-67 -38 -153 -38q-152 0 -231 101q-64 82 -64 160q0 136 137 218q67 40 158 40q152 0 231 -96q64 -78 64 -162zM522 1145q0 140 -95 213q-43 33 -95 33q-69 0 -113 -55q-41 -51 -41 -122q0 -93 48 -169q55 -87 143 -87q73 0 115 59
q38 52 38 128z" />
    <glyph glyph-name="glyph218" unicode="&#xbb;" horiz-adv-x="834" 
d="M762 399l-338 -389h-49l246 389l-254 404h45zM459 399l-336 -389h-49l243 389l-251 404h45z" />
    <glyph glyph-name="glyph219" unicode="&#xbc;" horiz-adv-x="1473" 
d="M1282 319h-121v-204h-104v204h-309v31l360 457h53v-424h121v-64zM1235 1468l-995 -1394h-84l995 1394h84zM487 756h-327v32h84q26 0 26 33v504q-82 -53 -143 -78l-18 27q129 74 204 160h62v-611q0 -35 39 -35h73v-32zM1057 383l-4 287l-219 -287h223z" />
    <glyph glyph-name="glyph220" unicode="&#xbd;" horiz-adv-x="1473" 
d="M1358 289l-25 -160h-506v25q139 124 282 258q103 96 103 190q0 59 -43.5 96t-103.5 37q-64 0 -113 -39.5t-67 -101.5h-43q11 99 84 158q70 55 172 55q93 0 160 -48q75 -53 75 -143q0 -82 -65 -148q-47 -47 -163 -131q-112 -81 -163 -134h281q63 0 79 31q9 18 13 55h43z
M1235 1468l-995 -1394h-84l995 1394h84zM487 756h-327v32h84q26 0 26 33v504q-82 -53 -143 -78l-18 27q129 74 204 160h62v-611q0 -35 39 -35h73v-32z" />
    <glyph glyph-name="glyph221" unicode="&#xbe;" horiz-adv-x="1473" 
d="M1317 319h-121v-204h-104v204h-310v31l361 457h53v-424h121v-64zM1270 1468l-996 -1394h-84l996 1394h84zM567 991q0 -141 -162 -216q-74 -34 -157 -34q-55 0 -112 16q-81 23 -81 64q0 43 49 43q29 0 89.5 -41t97.5 -41q70 0 117 58q45 54 45 125q0 56 -33 97.5t-88 41.5
q-41 0 -86 -35l-25 29q170 111 170 180q0 40 -32.5 65t-73.5 25q-95 0 -156 -106l-41 14q45 100 142 139q47 19 96 19q65 0 113 -29q57 -34 57 -94q0 -75 -111 -144q80 -6 129 -50q53 -47 53 -126zM1092 383v287h-5l-219 -287h224z" />
    <glyph glyph-name="glyph222" unicode="&#xbf;" horiz-adv-x="725" 
d="M512 877q0 -44 -29.5 -70.5t-74.5 -26.5t-75 26.5t-30 70.5q0 96 105 96q104 0 104 -96zM621 -252q0 -96 -179 -96q-207 0 -306 171q-48 83 -48 191q0 228 173 307q40 17 117 52q79 39 79 84q0 69 -78 147h45q100 -102 100 -211q0 -79 -59 -124q-34 -26 -136 -65
q-96 -36 -135 -72q-57 -52 -57 -142t61 -138q56 -45 148 -45q27 0 79.5 7.5t78.5 7.5q117 0 117 -74z" />
    <glyph glyph-name="glyph223" unicode="&#xc0;" horiz-adv-x="1386" 
d="M1376 129h-563v39h53q74 0 100 6q60 14 60 64q0 25 -22 84l-138 372h-424l-118 -321q-41 -112 -41 -129q0 -76 166 -76h32v-39h-473v39q125 4 162 67q24 42 59 136l373 1018l-18 45h178l428 -1137q38 -100 100 -119q32 -10 86 -10v-39zM831 784l-180 478l-174 -478h354z
M878 1564h-26l-217 146q-140 94 -140 145q0 60 64 60q66 0 131 -90z" />
    <glyph glyph-name="glyph224" unicode="&#xe0;" horiz-adv-x="811" 
d="M799 217q-139 -113 -203 -113q-86 0 -94 125q-153 -125 -238 -125q-83 0 -134 42q-56 45 -56 126q0 108 112 159q38 17 157 55q99 31 155 65v162q0 90 -35 131q-50 59 -115 59q-43 0 -83 -28q-44 -30 -44 -72q0 -16 10 -39l-139 -68q-6 20 -6 29q0 45 65 111
q126 127 238 127q137 0 215 -109q31 -43 31 -176v-275q0 -173 22 -191q11 -9 31 -9q47 0 100 45zM498 266v244q-39 -23 -121 -57q-95 -39 -115 -53q-57 -39 -57 -103q0 -51 35 -86t86 -35q44 0 172 90zM592 1128h-26l-217 146q-140 94 -140 145q0 60 64 60q66 0 131 -90z
" />
    <glyph glyph-name="glyph225" unicode="&#xe2;" horiz-adv-x="811" 
d="M799 217q-139 -113 -203 -113q-86 0 -94 125q-153 -125 -238 -125q-83 0 -134 42q-56 45 -56 126q0 108 112 159q38 17 157 55q99 31 155 65v162q0 90 -35 131q-50 59 -115 59q-43 0 -83 -28q-44 -30 -44 -72q0 -16 10 -39l-139 -68q-6 20 -6 29q0 45 65 111
q126 127 238 127q137 0 215 -109q31 -43 31 -176v-275q0 -173 22 -191q11 -9 31 -9q47 0 100 45zM498 266v244q-39 -23 -121 -57q-95 -39 -115 -53q-57 -39 -57 -103q0 -51 35 -86t86 -35q44 0 172 90zM614 1124l-254 256l-242 -256v35l221 369h58l217 -369v-35z" />
    <glyph glyph-name="glyph226" unicode="&#xc1;" horiz-adv-x="874" 
d="M801 317q-130 -205 -350 -213l-45 -75q12 2 23 2q48 0 87 -40q47 -49 47 -114q0 -74 -50 -125t-124 -51q-38 0 -88 16l14 29q28 -8 54 -8q44 0 76 30t32 74q0 74 -65 74q-47 0 -131 -41l139 231q-209 12 -291 219q-35 89 -35 175q0 266 236 401q108 62 235 62
q134 0 200 -57q30 -26 30 -60q0 -62 -60 -62q-45 0 -108 59q-71 66 -131 66q-149 0 -228 -185q-37 -86 -37 -179q0 -211 142 -310q67 -47 147 -47q144 0 250 148z" />
    <glyph glyph-name="glyph227" unicode="&#xcb;" horiz-adv-x="897" 
d="M831 649h-598q-8 -62 -8 -86q0 -210 159 -310q73 -46 153 -46q147 0 260 133l22 -25q-167 -211 -364 -211q-207 0 -309 207q-48 98 -48 213q0 245 186 376q89 63 210 63q173 0 241 -98q27 -62 96 -169v-47zM659 702q-21 136 -111 194q-43 28 -91 28q-162 0 -217 -222h419
zM635 1128h-26l-217 146q-140 94 -140 145q0 60 64 60q66 0 131 -90z" />
    <glyph glyph-name="glyph228" unicode="&#xc8;" horiz-adv-x="897" 
d="M831 649h-598q-8 -62 -8 -86q0 -210 159 -310q73 -46 153 -46q147 0 260 133l22 -25q-167 -211 -364 -211q-207 0 -309 207q-48 98 -48 213q0 245 186 376q89 63 210 63q173 0 241 -98q27 -62 96 -169v-47zM659 702q-21 136 -111 194q-43 28 -91 28q-162 0 -217 -222h419
zM635 1419q0 -51 -139 -145l-217 -146h-27l189 261q65 90 131 90q63 0 63 -60z" />
    <glyph glyph-name="glyph229" unicode="&#xcd;" horiz-adv-x="897" 
d="M831 649h-598q-8 -62 -8 -86q0 -210 159 -310q73 -46 153 -46q147 0 260 133l22 -25q-167 -211 -364 -211q-207 0 -309 207q-48 98 -48 213q0 245 186 376q89 63 210 63q173 0 241 -98q27 -62 96 -169v-47zM659 702q-21 136 -111 194q-43 28 -91 28q-162 0 -217 -222h419
zM728 1124l-254 256l-242 -256v35l221 369h58l217 -369v-35z" />
    <glyph glyph-name="glyph230" unicode="&#xce;" horiz-adv-x="897" 
d="M831 649h-598q-8 -62 -8 -86q0 -210 159 -310q73 -46 153 -46q147 0 260 133l22 -25q-167 -211 -364 -211q-207 0 -309 207q-48 98 -48 213q0 245 186 376q89 63 210 63q173 0 241 -98q27 -62 96 -169v-47zM659 702q-21 136 -111 194q-43 28 -91 28q-162 0 -217 -222h419
zM740 1274q0 -38 -26 -64t-64 -26t-64 26t-26 64t26 64t64 26t64 -26t26 -64zM342 1274q0 -38 -26 -64t-64 -26t-64 26t-26 64t26 64t64 26t64 -26t26 -64z" />
    <glyph glyph-name="glyph231" unicode="&#xd3;" horiz-adv-x="532" 
d="M492 129h-455v39q88 0 126 30q44 34 44 119v412q0 74 -23 87q-14 8 -41 13l-96 19v33l266 92h31v-688q0 -117 148 -117v-39zM483 1124l-254 256l-242 -256v35l221 369h58l217 -369v-35z" />
    <glyph glyph-name="glyph232" unicode="&#xd4;" horiz-adv-x="532" 
d="M492 129h-455v39q88 0 126 30q44 34 44 119v412q0 74 -23 87q-14 8 -41 13l-96 19v33l266 92h31v-688q0 -117 148 -117v-39zM543 1274q0 -38 -26 -64t-64 -26t-64 26t-26 64t26 64t64 26t64 -26t26 -64zM145 1274q0 -38 -26 -64t-64 -26t-64 26t-26 64t26 64t64 26
t64 -26t26 -64z" />
    <glyph glyph-name="glyph233" unicode="&#xd9;" horiz-adv-x="1067" 
d="M975 532q0 -181 -126.5 -304.5t-307.5 -123.5q-260 0 -389 208q-60 97 -60 216q0 188 127.5 311.5t315.5 123.5t314 -122t126 -309zM821 481q0 157 -77 284q-90 148 -238 148q-114 0 -190 -103q-70 -95 -70 -212q0 -256 158 -384q74 -60 159 -60q141 0 220 155
q38 74 38 172zM747 1124l-254 256l-242 -256v35l221 369h58l217 -369v-35z" />
    <glyph glyph-name="glyph234" unicode="&#xf7;" horiz-adv-x="946" 
d="M549 772q0 -36 -23.5 -61.5t-59.5 -25.5q-35 0 -60.5 26t-25.5 61q0 36 25 59.5t61 23.5q35 0 59 -24t24 -59zM835 452h-730v83h730v-83zM549 215q0 -36 -23.5 -61t-59.5 -25q-35 0 -60.5 25.5t-25.5 60.5q0 36 25 60.5t61 24.5t59.5 -24.5t23.5 -60.5z" />
    <glyph glyph-name="glyph235" unicode="&#xf9;" horiz-adv-x="1067" 
d="M1018 188l-275 -84v164q-228 -164 -348 -164q-92 0 -154.5 59t-62.5 150v455q0 69 -55 84l-72 20v31l264 57v-573q0 -83 51 -133.5t134 -50.5q107 0 243 112v441q0 56 -11 75q-14 24 -64 33l-103 19v28l316 49v-690q0 -53 36 -58q18 -2 58 5l43 8v-37zM719 1128h-26
l-217 146q-140 94 -140 145q0 60 64 60q66 0 131 -90z" />
    <glyph glyph-name="glyph236" unicode="&#xfb;" horiz-adv-x="1067" 
d="M1018 188l-275 -84v164q-228 -164 -348 -164q-92 0 -154.5 59t-62.5 150v455q0 69 -55 84l-72 20v31l264 57v-573q0 -83 51 -133.5t134 -50.5q107 0 243 112v441q0 56 -11 75q-14 24 -64 33l-103 19v28l316 49v-690q0 -53 36 -58q18 -2 58 5l43 8v-37zM759 1124l-254 256
l-242 -256v35l221 369h58l217 -369v-35z" />
    <glyph glyph-name="glyph237" unicode="&#xfc;" horiz-adv-x="1067" 
d="M1018 188l-275 -84v164q-228 -164 -348 -164q-92 0 -154.5 59t-62.5 150v455q0 69 -55 84l-72 20v31l264 57v-573q0 -83 51 -133.5t134 -50.5q107 0 243 112v441q0 56 -11 75q-14 24 -64 33l-103 19v28l316 49v-690q0 -53 36 -58q18 -2 58 5l43 8v-37zM824 1274
q0 -38 -26 -64t-64 -26t-64 26t-26 64t26 64t64 26t64 -26t26 -64zM426 1274q0 -38 -26 -64t-64 -26t-64 26t-26 64t26 64t64 26t64 -26t26 -64z" />
    <glyph glyph-name="glyph238" unicode="&#xff;" horiz-adv-x="961" 
d="M950 903q-109 -11 -170 -164l-348 -868q-88 -219 -180 -219q-32 0 -58 19.5t-26 51.5q0 37 33 56q53 13 137 59q40 41 70 117l61 154l-317 673q-30 63 -61 89q-38 31 -101 32v37h411v-37q-90 -1 -109 -29q-20 -29 11 -96l232 -499l174 434q29 72 29 113q0 23 -8 36
q-24 38 -120 41v37h340v-37zM770 1274q0 -38 -26 -64t-64 -26t-64 26t-26 64t26 64t64 26t64 -26t26 -64zM372 1274q0 -38 -26 -64t-64 -26t-64 26t-26 64t26 64t64 26t64 -26t26 -64z" />
    <glyph glyph-name="glyph240" unicode="&#x152;" horiz-adv-x="2028" 
d="M1931 434l-33 -305h-817q-12 0 -103 -3q-21 -1 -77 -3l-151 -8q-149 -8 -307 83q-156 88 -241 234.5t-85 325.5q0 238 157 431q185 228 539 228q18 0 191 -8q130 -6 221 -6h610l16 -285h-36q-14 100 -36 142q-36 69 -116 69h-416v-504h352q66 0 93 46q20 34 26 108h39
v-389h-39q-10 88 -31 119q-29 43 -108 43h-332v-549h410q110 0 164 63q38 45 73 168h37zM1077 448v693q0 225 -291 225q-327 0 -439 -279q-52 -130 -52 -296q0 -370 253 -544q118 -81 257 -81q152 0 228 108q44 63 44 174z" />
    <glyph glyph-name="glyph241" unicode="&#x153;" horiz-adv-x="1516" 
d="M1452 649h-555q-1 -21 -1 -41q0 -240 135 -358q67 -58 143 -58q82 0 241 146l21 -23q-194 -211 -353 -211q-144 0 -237 150q-112 -150 -311 -150q-259 0 -383 213q-58 100 -58 220q0 130 74 238t196 156q80 32 166 32q196 0 293 -152q125 152 299 152q162 0 228 -92
q35 -70 102 -175v-47zM1264 702q0 142 -83 197q-38 25 -89 25q-74 0 -136 -78q-44 -56 -55 -144h363zM772 483q0 260 -135 376q-63 54 -143 54q-125 0 -206 -152q-40 -75 -40 -175q0 -249 163 -376q72 -56 142 -56q139 0 193 152q26 73 26 177z" />
    <glyph glyph-name="glyph242" unicode="&#x160;" 
d="M911 446q0 -162 -131 -261q-119 -89 -286 -89q-72 0 -213 39q-62 17 -72 17q-26 0 -41 -23h-35l-43 311h39q31 -128 122 -206q95 -82 224 -82q117 0 196 61q87 66 87 180q0 104 -118 205q-59 50 -216 147q-144 89 -211 155q-113 111 -113 237q0 175 179 258q84 39 186 39
q101 0 207 -36q47 -16 71 -16q22 0 37 21h33l35 -260h-35q-41 106 -128 172q-91 69 -202 69q-96 0 -159 -47q-70 -52 -70 -145q0 -102 116 -199q33 -28 203 -134q160 -100 226 -167q112 -113 112 -246zM750 1925l-221 -369h-58l-217 369v35l254 -256l242 256v-35z" />
    <glyph glyph-name="glyph243" unicode="&#x161;" horiz-adv-x="618" 
d="M553 338q0 -104 -74.5 -169t-179.5 -65q-49 0 -90 15q-46 12 -55 12q-20 0 -35 -25h-31l-22 230h32q43 -193 195 -193q85 0 126 68q19 31 19 68q0 60 -65 124q-40 39 -139 107q-92 63 -117 90q-51 55 -51 133q0 108 79 171q73 59 183 59q78 0 164 -33l4 -187h-35
q-15 105 -87 149q-35 21 -77 21q-51 0 -88 -32t-37 -82q0 -63 64 -119q31 -27 130 -89q84 -53 124 -97q63 -70 63 -156zM538 1493l-221 -369h-58l-217 369v35l254 -256l242 256v-35z" />
    <glyph glyph-name="glyph244" unicode="&#x178;" horiz-adv-x="1450" 
d="M1407 1364q-168 -13 -256 -162l-340 -575v-308q0 -85 41 -119q37 -32 123 -32h26v-39h-563v39h39q86 0 123 30q41 34 41 117v289l-365 569q-46 72 -71 101q-46 53 -93 72q-40 16 -116 18v39h545v-39q-148 0 -144 -54q2 -28 35 -79l328 -506l289 491q31 53 31 86
q0 62 -136 62v39h463v-39zM1016 1710q0 -38 -26 -64t-64 -26t-64 26t-26 64t26 64t64 26t64 -26t26 -64zM618 1710q0 -38 -26 -64t-64 -26t-64 26t-26 64t26 64t64 26t64 -26t26 -64z" />
    <glyph glyph-name="glyph245" unicode="&#x192;" horiz-adv-x="1024" 
d="M1020 1409q0 -59 -57 -59q-33 0 -88 39q-63 45 -95 45q-69 0 -119 -82q-38 -63 -55 -144l-55 -268h176l-20 -68h-168l-105 -598q-73 -419 -300 -559q-102 -63 -206 -63q-50 0 -98 22q-59 27 -59 72q0 25 20.5 43t46.5 18q33 0 97 -45t98 -45q65 0 126 61q73 73 103 243
l150 851h-142l6 39q72 9 150 27q57 309 207 459q110 110 241 110q52 0 94 -23q52 -28 52 -75z" />
    <glyph glyph-name="glyph271" unicode="&#x200e;" horiz-adv-x="45" 
d="M303 1604l-137 -138l-31 31l86 86h-176v-1583h-45v1628h217l-82 82l31 31z" />
    <glyph glyph-name="glyph273" unicode="&#x2013;" horiz-adv-x="1024" 
d="M1036 594h-1048v90h1048v-90z" />
    <glyph glyph-name="glyph274" unicode="&#x2014;" horiz-adv-x="2048" 
d="M2060 594h-2072v90h2072v-90z" />
    <glyph glyph-name="glyph275" unicode="&#x2018;" horiz-adv-x="532" 
d="M393 1110q0 -43 -33 -71.5t-77 -28.5q-67 0 -107 53q-37 48 -37 117q0 131 110 229q53 47 118 72l14 -37q-158 -93 -158 -205q0 -43 29 -43q8 0 24.5 3t24.5 3q92 0 92 -92z" />
    <glyph glyph-name="glyph276" unicode="&#x2019;" horiz-adv-x="532" 
d="M393 1311q0 -100 -67 -184q-62 -79 -160 -117l-14 37q157 91 157 204q0 43 -28 43q-8 0 -25 -3t-25 -3q-38 0 -65 27t-27 65q0 44 33 72.5t78 28.5q66 0 106 -54q37 -48 37 -116z" />
    <glyph glyph-name="glyph277" unicode="&#x201a;" horiz-adv-x="532" 
d="M393 127q0 -100 -67 -184q-62 -79 -160 -117l-14 37q157 91 157 205q0 43 -28 43q-8 0 -25 -3.5t-25 -3.5q-39 0 -65.5 27t-26.5 66q0 44 33 72t78 28q66 0 106 -54q37 -48 37 -116z" />
    <glyph glyph-name="glyph278" unicode="&#x201c;" horiz-adv-x="981" 
d="M842 1110q0 -44 -33 -72t-78 -28q-67 0 -107 53q-36 47 -36 117q0 130 109 229q52 47 118 72l14 -37q-157 -92 -157 -205q0 -43 28 -43q7 1 13 2l12 2q12 2 25 2q92 0 92 -92zM377 1110q0 -44 -33 -72t-78 -28q-67 0 -107 53q-36 47 -36 117q0 130 109 229q52 47 118 72
l15 -37q-158 -92 -158 -205q0 -43 29 -43q8 0 24.5 3t24.5 3q92 0 92 -92z" />
    <glyph glyph-name="glyph279" unicode="&#x201d;" horiz-adv-x="981" 
d="M858 1311q0 -100 -67 -184q-62 -79 -160 -117l-15 37q158 91 158 204q0 43 -29 43q-8 0 -24.5 -3t-24.5 -3q-38 0 -65 27t-27 65q0 44 33 72.5t78 28.5q66 0 106 -54q37 -48 37 -116zM393 1311q0 -100 -67 -184q-62 -79 -160 -117l-14 37q157 91 157 204q0 43 -28 43
q-8 0 -25 -3t-25 -3q-38 0 -65 27t-27 65q0 44 33 72.5t78 28.5q66 0 106 -54q37 -48 37 -116z" />
    <glyph glyph-name="glyph280" unicode="&#x201e;" horiz-adv-x="981" 
d="M858 127q0 -100 -67 -184q-62 -79 -160 -117l-15 37q158 91 158 205q0 43 -29 43q-8 0 -24.5 -3.5t-24.5 -3.5q-39 0 -65.5 27t-26.5 66q0 44 33 72t78 28q66 0 106 -54q37 -48 37 -116zM393 127q0 -100 -67 -184q-62 -79 -160 -117l-14 37q157 91 157 205q0 43 -28 43
q-8 0 -25 -3.5t-25 -3.5q-39 0 -65.5 27t-26.5 66q0 44 33 72t78 28q66 0 106 -54q37 -48 37 -116z" />
    <glyph glyph-name="glyph281" unicode="&#x2020;" horiz-adv-x="1024" 
d="M985 262q0 -51 -29 -47l-413 -443l69 -42q2 -41 -26 -41h-137q-37 0 -35 43l61 40l-367 443q-39 -5 -39 43v100q0 43 29 39l158 203l180 196q-5 39 33 39h92q50 0 55 -12q2 -7 0 -25l250 -207l80 -196q39 6 39 -49v-84z" />
    <glyph glyph-name="glyph282" unicode="&#x2021;" horiz-adv-x="1067" 
d="M991 117q0 -54 -37 -49l-383 53l52 -379q6 -47 -39 -47h-99q-46 0 -39 49l52 377l-381 -53q-41 -6 -41 36v101q0 47 47 41l375 -51l-39 383l39 382l-375 -51q-47 -6 -47 41v101q0 42 41 36l381 -53l-52 377q-1 7 -1 17q0 32 40 32h99q45 0 39 -47l-52 -379l383 53
q37 5 37 -49v-88q0 -48 -51 -41l-369 51l39 -382l-39 -383l369 51q51 7 51 -41v-88z" />
    <glyph glyph-name="glyph283" unicode="&#x2022;" horiz-adv-x="725" 
d="M614 768q0 -145 -123 -218q-57 -34 -126 -34q-107 0 -179.5 72.5t-72.5 179.5q0 106 73 178t179 72q171 0 231 -152q18 -45 18 -98z" />
    <glyph glyph-name="glyph284" unicode="&#x2026;" horiz-adv-x="2048" 
d="M1810 201q0 -97 -104 -97q-44 0 -74 27t-30 70q0 96 104 96t104 -96zM1128 201q0 -97 -104 -97q-44 0 -74 27t-30 70q0 96 104 96t104 -96zM446 201q0 -97 -104 -97q-44 0 -74 27t-30 70q0 96 104 96t104 -96z" />
    <glyph glyph-name="glyph285" unicode="&#x2030;" horiz-adv-x="2048" 
d="M2013 461q0 -203 -131 -300q-62 -46 -133 -46q-152 0 -227 171q-35 80 -35 175q0 201 131 300q61 46 131 46q153 0 229 -171q35 -78 35 -175zM1386 461q0 -202 -131 -300q-62 -46 -133 -46q-152 0 -227 171q-35 80 -35 175q0 201 131 300q61 46 131 46q154 0 229 -172
q35 -80 35 -174zM1249 1468l-993 -1394h-86l995 1394h84zM559 1087q0 -200 -132 -300q-61 -46 -132 -46q-152 0 -227 173q-35 81 -35 173q0 201 129 301q60 46 133 46q153 0 229 -171q35 -78 35 -176zM1898 461q0 315 -149 315q-147 0 -147 -315q0 -316 147 -316
q149 0 149 316zM1272 461q0 315 -150 315q-147 0 -147 -315q0 -316 147 -316q150 0 150 316zM444 1087q0 316 -149 316q-148 0 -148 -316q0 -315 148 -315q149 0 149 315z" />
    <glyph glyph-name="glyph286" unicode="&#x2039;" horiz-adv-x="469" 
d="M408 201h-37l-301 377l301 376h37l-195 -376z" />
    <glyph glyph-name="glyph287" unicode="&#x203a;" horiz-adv-x="469" 
d="M399 578l-301 -377h-37l195 377l-195 376h37z" />
    <glyph glyph-name="glyph288" unicode="&#x2122;" horiz-adv-x="2005" 
d="M1974 678h-399v35q77 2 99.5 27.5t21.5 103.5l-4 491l-303 -657h-33l-309 649v-483q0 -75 12 -97q18 -34 84 -34h37v-35h-310v35q93 0 107 45q8 25 8 86v467q0 115 -40 129q-22 8 -75 8v37h289l273 -574l264 574h278v-37q-22 -1 -61 -7q-35 -11 -44 -54q-3 -17 -3 -76
v-467q0 -105 36 -119q23 -9 72 -12v-35zM803 1284h-35q-15 103 -89 128q-38 13 -104 13h-71v-581q0 -76 14 -98q19 -28 88 -33v-35h-375v35q41 4 57 10q46 17 46 121v581h-80q-88 0 -128 -27q-45 -31 -60 -114h-35l20 201h729z" />
    <glyph glyph-name="glyph313" unicode="&#xe834;" horiz-adv-x="0" 
 />
    <glyph glyph-name="glyph621" horiz-adv-x="1186" 
 />
    <glyph glyph-name="Kaf_Kashish" unicode="&#x6aa;" horiz-adv-x="2285" 
d="M1095 848q-83 0 -101 -2q-87 -12 -183 -63q-75 -39 -125 -81q-17 -14 -86 -79q-23 -22 -20 8q0 -23 94 -49q104 -18 244 -18q120 0 284 14q101 9 332 18q121 6 208 6q251 0 332 -70q122 -88 132 -291q0 -42 -35.5 -103t-159.5 -82q-18 -5 -41 -5q-45 0 -513 -21.5
t-552 -21.5q-87 0 -181 -3.5t-122 -3.5q-69 0 -218 7q-36 9 -71 19q-61 21 -143 77q-58 38 -99.5 96t102.5 27q95 -14 214 -17q79 -2 215 1q156 3 215 2q834 22 1220 66q41 -4 41 57q0 15 -50 39q-74 21 -199 34q-11 1 -32 1q-83 0 -606 -30q-367 -28 -420 -23
q-204 17 -277 68q-29 20 -37 100q0 36 27 113q149 275 405 379q132 53 269 50q104 -3 94 -118q0 -20 -9 -43q-23 -79 -60 -106q-6 -10 -13 -3q-13 10 -17 17q-10 17 -21 24t-19 7z" />
    <glyph glyph-name="glyph639" unicode="&#xe017;" horiz-adv-x="274" 
d="M273 -102h-273v31h273v-31zM271 -276h-273v5h273v-5zM271 -210h-273v5h273v-5zM273 538h-273v5h273v-5zM273 602h-273v5h273v-5zM273 407h-273v26h273v-26zM264 92l-16 -56q-3 -7 -7 -6q-93 -13 -187 -12q-15 0 -29 13v6q0 41 54 116l57 80q21 27 73 101q2 -1 3 -2
l-9 -49q-6 -11 -54 -78l-58 -81q-14 -20 -19 -29l1 -1q92 0 172 10l18 2q2 -2 1 -14z" />
    <glyph glyph-name="glyph640" unicode="&#xe018;" horiz-adv-x="274" 
d="M273 -102h-273v31h273v-31zM271 -276h-273v5h273v-5zM271 -210h-273v5h273v-5zM273 538h-273v5h273v-5zM273 602h-273v5h273v-5zM273 407h-273v26h273v-26zM247 99q-1 -15 -21 -80q-3 -7 -6 -3q-9 19 -23 48l-55 143q-4 11 -13 37h-1l-47 -140q-14 -42 -33 -92
q-2 -2 -3.5 4t-3 18t-1.5 18q0 19 8 30q19 48 46 132l43 134q1 5 4 5q6 0 10 -9q25 -72 96 -245z" />
    <glyph glyph-name="glyph641" unicode="&#xe019;" horiz-adv-x="274" 
d="M273 -102h-273v31h273v-31zM271 -276h-273v5h273v-5zM271 -210h-273v5h273v-5zM273 538h-273v5h273v-5zM273 602h-273v5h273v-5zM273 407h-273v26h273v-26zM181 231q2 -111 -5 -154q-1 -29 -19 -82l-7 -16q-2 -1 -3 0t-1 3q1 71 0 138q-1 2 -2 1q-15 -5 -29 -5
q-59 0 -59 75q0 22 6 52q21 94 64 101q22 3 36 -16q18 -33 19 -97zM156 213q0 20 -7 30q-2 8 -11 15q-16 6 -25 6q-29 0 -33 -33q4 -22 34 -33q19 -1 24 0q13 2 18 15z" />
    <glyph glyph-name="glyph642" unicode="&#x6d4;" horiz-adv-x="918" 
d="M844 202q-7 -43 -33 -85q-42 -66 -109 -101q-8 -3 -76 -3h-130q-78 0 -120 13q-14 4 -90 31q-124 43 -190 82l-3 47q213 0 349 8q96 6 231 22q66 8 149 19q22 0 22 -33z" />
    <glyph glyph-name="glyph643" horiz-adv-x="676" 
d="M702 1081q-154 -304 -432 -304l-192 24q-56 0 -200 -120q-22 -5 -16 24q170 216 288 216l184 -16q212 0 336 184q7 11 20.5 11.5t11.5 -19.5zM325 728q96 -164 96 -320q-42 -296 -104 -296l-8 8v8l16 104v8q0 96 -80 288v16q40 184 80 184z" />
    <glyph glyph-name="LamYeh_lig_f" horiz-adv-x="1195" 
 />
    <glyph glyph-name="BehS_m" horiz-adv-x="721" 
d="M729 0q-293 0 -293 243q-4 10 -8 0q0 -109 -248 -192q-120 -32 -158 -37.5t-266 -13.5q-75 -1 -163 16t-126 71.5t203 74t240 17.5q401 51 478 152q98 154 112 112q3 -20 -8 -48q0 -153 200 -173q15 2 37 -2v-220zM326 -83q74 0 184 -104v-16q-68 -176 -96 -176
q-136 52 -168 104v8q0 84 80 184z" />
    <glyph glyph-name="SeenS_i" horiz-adv-x="1114" 
d="M-65 174h8q208 34 432 200q20 88 40 88h8q30 -18 0 -104q46 -168 160 -168q112 0 128 184q0 32 32 48q16 0 24 -80q50 -112 120 -122h16q40 -2 64 42l4 124q-2 116 20 116q38 0 48 -232q-10 -165 -80 -232q-30 -32 -80 -32q-38 -7 -73 8.5t-71 87.5q-8 30 -16 0
q-23 -63 -75.5 -88.5t-92.5 -17.5q-156 15 -184 186q-166 -110 -288 -152q-328 -76 -516 -21.5t-183 92t157 36.5t398 37z" />
  </font>
</defs>
</svg>
